<?xml version="1.0" standalone="no"?>
<!DOCTYPE svg PUBLIC "-//W3C//DTD SVG 1.1//EN" "http://www.w3.org/Graphics/SVG/1.1/DTD/svg11.dtd" >
<!--
2023-9-26: Created.
-->
<svg xmlns="http://www.w3.org/2000/svg">
<metadata>
Created by FontForge 20120731 at Tue Sep 26 07:41:00 2023
 By root

</metadata>
<defs>
<font id="MaterialIcons-lhc-v6" horiz-adv-x="512" >
  <font-face 
    font-family="MaterialIcons-lhc-v6"
    font-weight="500"
    font-stretch="normal"
    units-per-em="512"
    panose-1="2 0 6 3 0 0 0 0 0 0"
    ascent="448"
    descent="-64"
    bbox="0 -42.667 512 426.667"
    underline-thickness="25.6"
    underline-position="-51.2"
    unicode-range="U+0020-F126"
  />
    <missing-glyph />
    <glyph glyph-name="space" unicode=" " horiz-adv-x="200" 
 />
    <glyph glyph-name="ic_link_24px" unicode="&#xf115;" 
d="M83.2002 192c0 -36.4805 29.6533 -66.1338 66.1328 -66.1338h85.334v-40.5332h-85.334c-58.8799 0 -106.666 47.7871 -106.666 106.667s47.7861 106.667 106.666 106.667h85.334v-40.5332h-85.334c-36.4795 0 -66.1328 -29.6533 -66.1328 -66.1338zM170.667 170.667
v42.666h170.666v-42.666h-170.666zM362.667 298.667c58.8799 0 106.666 -47.7871 106.666 -106.667s-47.7861 -106.667 -106.666 -106.667h-85.334v40.5332h85.334c36.4795 0 66.1328 29.6533 66.1328 66.1338s-29.6533 66.1338 -66.1328 66.1338h-85.334v40.5332h85.334z
" />
    <glyph glyph-name="ic_stop_24px" unicode="&#xf112;" 
d="M128 320h256v-256h-256v256z" />
    <glyph glyph-name="ic_settings_24px" unicode="&#xf100;" 
d="M414.507 171.094l45.0127 -35.2002c4.05371 -3.2002 5.12012 -8.95996 2.56055 -13.6533l-42.667 -73.8135c-2.55957 -4.69336 -8.10645 -6.61328 -13.0127 -4.69336l-53.1201 21.333c-11.0938 -8.31934 -23.04 -15.5732 -36.0537 -20.9062l-8.10645 -56.5332
c-0.639648 -5.12012 -5.12012 -8.95996 -10.4531 -8.95996h-85.334c-5.33301 0 -9.81348 3.83984 -10.4531 8.95996l-8.10645 56.5332c-13.0137 5.33301 -24.96 12.373 -36.0537 20.9062l-53.1201 -21.333c-4.69336 -1.70703 -10.4531 0 -13.0127 4.69336l-42.667 73.8135
c-2.55957 4.69336 -1.49316 10.4531 2.56055 13.6533l45.0127 35.2002c-0.853516 6.82617 -1.49316 13.8662 -1.49316 20.9062s0.639648 14.0801 1.49316 20.9062l-45.0127 35.2002c-4.05371 3.2002 -5.33398 8.95996 -2.56055 13.6533l42.667 73.8135
c2.55957 4.69336 8.10645 6.61328 13.0127 4.69336l53.1201 -21.333c11.0938 8.31934 23.04 15.5732 36.0537 20.9062l8.10645 56.5332c0.639648 5.12012 5.12012 8.95996 10.4531 8.95996h85.334c5.33301 0 9.81348 -3.83984 10.4531 -8.95996l8.10645 -56.5332
c13.0137 -5.33301 24.96 -12.373 36.0537 -20.9062l53.1201 21.333c4.69336 1.70703 10.4531 0 13.0127 -4.69336l42.667 -73.8135c2.55957 -4.69336 1.49316 -10.4531 -2.56055 -13.6533l-45.0127 -35.2002c0.853516 -6.82617 1.49316 -13.6533 1.49316 -20.9062
s-0.639648 -14.0801 -1.49316 -20.9062zM256 117.333c41.1738 0 74.667 33.4932 74.667 74.667s-33.4932 74.667 -74.667 74.667s-74.667 -33.4932 -74.667 -74.667s33.4932 -74.667 74.667 -74.667z" />
    <glyph glyph-name="ic_open_in_new_24px" unicode="&#xf106;" 
d="M405.333 42.667v149.333h42.667v-149.333c0 -23.4668 -19.2002 -42.667 -42.667 -42.667h-298.666c-23.6807 0 -42.667 19.2002 -42.667 42.667v298.666c0 23.4668 18.9863 42.667 42.667 42.667h149.333v-42.667h-149.333v-298.666h298.666zM298.667 384h149.333
v-149.333h-42.667v76.5859l-209.706 -209.706l-30.0801 30.0801l209.706 209.706h-76.5859v42.667z" />
    <glyph glyph-name="ic_thumb_down_24px" unicode="&#xf108;" 
d="M320 384c23.4668 0 42.667 -19.2002 42.667 -42.667v-213.333c0 -11.7334 -4.69336 -22.4004 -12.374 -30.0801l-140.586 -140.587l-22.6133 22.4004c-5.76074 5.75977 -9.38672 13.8662 -9.38672 22.6133l0.639648 6.82715l20.2666 97.4932h-134.613
c-23.4668 0 -42.667 19.1992 -42.667 42.666l0.213867 1.70703l-0.213867 0.212891v40.7471c0 5.54688 1.06738 10.667 2.9873 15.5732l64.4268 150.4c6.39941 15.3594 21.5459 26.0264 39.2529 26.0264h192zM405.333 384h85.334v-256h-85.334v256z" />
    <glyph glyph-name="ic_full_screen_24px" unicode="&#xf124;" 
d="M149.333 149.333v-64h64v-42.666h-106.666v106.666h42.666zM106.667 234.667v106.666h106.666v-42.666h-64v-64h-42.666zM362.667 85.333v64h42.666v-106.666h-106.666v42.666h64zM298.667 341.333h106.666v-106.666h-42.666v64h-64v42.666z" />
    <glyph glyph-name="ic_play_arrow_24px" unicode="&#xf111;" 
d="M170.667 341.333l234.666 -149.333l-234.666 -149.333v298.666z" />
    <glyph glyph-name="ic_image_24px" unicode="&#xf114;" 
d="M448 42.667c0 -23.4668 -19.2002 -42.667 -42.667 -42.667h-298.666c-23.4668 0 -42.667 19.2002 -42.667 42.667v298.666c0 23.4668 19.2002 42.667 42.667 42.667h298.666c23.4668 0 42.667 -19.2002 42.667 -42.667v-298.666zM181.333 160l-74.666 -96h298.666
l-96 128l-74.666 -96.2129z" />
    <glyph glyph-name="ic_menu_24px" unicode="&#xf105;" 
d="M64 64v42.667h384v-42.667h-384zM64 170.667v42.666h384v-42.666h-384zM64 320h384v-42.667h-384v42.667z" />
    <glyph glyph-name="ic_format_size_24px" unicode="&#xf11d;" 
d="M192 362.667h277.333v-64h-106.666v-256h-64v256h-106.667v64zM64 192v64h192v-64h-64v-149.333h-64v149.333h-64z" />
    <glyph glyph-name="ic_face_24px" unicode="&#xf104;" 
d="M192 197.333c14.7197 0 26.667 -11.9463 26.667 -26.666c0 -14.7207 -11.9473 -26.667 -26.667 -26.667s-26.667 11.9463 -26.667 26.667c0 14.7197 11.9473 26.666 26.667 26.666zM320 197.333c14.7197 0 26.667 -11.9463 26.667 -26.666
c0 -14.7207 -11.9473 -26.667 -26.667 -26.667s-26.667 11.9463 -26.667 26.667c0 14.7197 11.9473 26.666 26.667 26.666zM256 405.333c117.76 0 213.333 -95.5732 213.333 -213.333s-95.5732 -213.333 -213.333 -213.333s-213.333 95.5732 -213.333 213.333
s95.5732 213.333 213.333 213.333zM256 21.333c94.0801 0 170.667 76.5869 170.667 170.667c0 16.8535 -2.56055 33.0664 -7.04004 48.2129c-15.3604 -3.62598 -31.3604 -5.5459 -48 -5.5459c-71.8936 0 -135.467 35.626 -174.08 90.2393
c-20.9072 -50.9863 -60.7998 -92.1592 -111.146 -114.56c-0.640625 -5.97363 -1.06738 -12.1602 -1.06738 -18.3467c0 -94.0801 76.5869 -170.667 170.667 -170.667z" />
    <glyph glyph-name="ic_volume_off_24px" unicode="&#xf101;" 
d="M352 192c0 -4.69336 -0.426758 -9.17383 -1.06641 -13.4404l-52.2666 52.2676v47.1465c31.5732 -15.7871 53.333 -48.2139 53.333 -85.9736zM405.333 192c0 67.627 -45.0127 124.8 -106.666 143.146v43.9473c85.5459 -19.4141 149.333 -95.7871 149.333 -187.094
c0 -32 -7.89355 -62.0801 -21.9736 -88.5332l-32.2129 32.2129c7.25293 17.4941 11.5195 36.2666 11.5195 56.3203zM91.0938 384l164.906 -164.906l192 -192l-27.0938 -27.0938l-43.5195 43.7334c-22.6133 -18.3467 -49.2803 -32 -78.7197 -38.6133v43.9463
c17.7061 5.33398 33.7061 14.0801 48 25.1738l-90.667 90.666v-143.573l-106.667 106.667h-85.333v128h100.906l-100.906 100.906zM256 362.667v-89.1738l-44.5869 44.5869z" />
    <glyph glyph-name="ic_minimize_24px" unicode="&#xf11c;" 
d="M128 42.667h256v-42.667h-256v42.667z" />
    <glyph glyph-name="ic_close_24px" unicode="&#xf10a;" 
d="M405.333 311.253l-119.253 -119.253l119.253 -119.253l-30.0801 -30.0801l-119.253 119.253l-119.253 -119.253l-30.0801 30.0801l119.253 119.253l-119.253 119.253l30.0801 30.0801l119.253 -119.253l119.253 119.253z" />
    <glyph glyph-name="ic_fold_24px" unicode="&#xf123;" 
d="M158.08 51.4131l97.9199 97.9199l97.707 -97.9199l-30.0801 -30.0801l-67.627 67.627l-67.627 -67.627zM353.92 332.587l-97.9199 -97.9199l-97.9199 97.9199l30.293 30.0801l67.627 -67.627l67.627 67.627z" />
    <glyph glyph-name="ic_mic_none_24px" unicode="&#xf10b;" 
d="M256 149.333c-35.4131 0 -64 28.5869 -64 64v128c0 35.4141 28.5869 64 64 64s64 -28.5859 64 -64l-0.212891 -128c0 -35.4131 -28.374 -64 -63.7871 -64zM230.4 343.467v-132.267c0 -14.0801 11.5195 -25.6006 25.5996 -25.6006s25.3867 11.5205 25.3867 25.6006
l0.212891 132.267c0 14.0801 -11.5195 25.5996 -25.5996 25.5996s-25.5996 -11.5195 -25.5996 -25.5996zM369.066 213.333h36.2666c0 -72.96 -58.0264 -133.12 -128 -143.359v-69.9736h-42.666v69.9736c-69.9736 10.4531 -128 70.6133 -128 143.359h36.2666
c0 -64 54.1865 -108.8 113.066 -108.8s113.066 44.7998 113.066 108.8z" />
    <glyph glyph-name="ic_hourglass_empty_24px" unicode="&#xf113;" 
d="M128 405.333h256v-128h-0.212891l0.212891 -0.212891l-85.333 -85.1201l85.333 -85.333l-0.212891 -0.213867h0.212891v-127.786h-256v127.786h0.212891l-0.212891 0.213867l85.333 85.333l-85.333 85.1201l0.212891 0.212891h-0.212891v128zM341.333 96l-85.333 85.333
l-85.333 -85.333v-74.667h170.666v74.667zM256 202.667l85.333 85.333v74.667h-170.666v-74.667z" />
    <glyph glyph-name="ic_mail_outline_24px" unicode="&#xf11a;" 
d="M426.667 362.667c23.4668 0 42.666 -19.2002 42.666 -42.667v-256c0 -23.4668 -19.1992 -42.667 -42.666 -42.667h-341.334c-23.4668 0 -42.666 19.2002 -42.666 42.667l0.212891 256c0 23.4668 18.9863 42.667 42.4531 42.667h341.334zM426.667 64v213.333
l-170.667 -106.666l-170.667 106.666v-213.333h341.334zM256 213.333l170.667 106.667h-341.334z" />
    <glyph glyph-name="ic_phone_in_talk_24px" unicode="&#xf117;" 
d="M426.667 117.333c11.7334 0 21.333 -9.59961 21.333 -21.333v-74.667c0 -11.7334 -9.59961 -21.333 -21.333 -21.333c-200.32 0 -362.667 162.347 -362.667 362.667c0 11.7334 9.59961 21.333 21.333 21.333h74.667c11.7334 0 21.333 -9.59961 21.333 -21.333
c0 -26.667 4.2666 -52.2666 12.1602 -76.1602c2.34668 -7.4668 0.640625 -15.7871 -5.33301 -21.334l-46.9336 -47.1465c30.7197 -60.5859 80.2139 -109.866 140.587 -140.586l46.9336 46.9326c5.97266 5.75977 14.293 7.4668 21.7598 5.12012
c23.8936 -7.89355 49.4932 -12.1602 76.1602 -12.1602zM405.333 192c0 82.5596 -66.7734 149.333 -149.333 149.333v42.667c106.026 0 192 -85.9736 192 -192h-42.667zM320 192c0 35.4131 -28.5869 64 -64 64v42.667c58.8799 0 106.667 -47.7871 106.667 -106.667h-42.667z
" />
    <glyph glyph-name="ic_cloud_download_24px" unicode="&#xf119;" 
d="M412.8 233.813c55.4668 -3.83984 99.2002 -49.4932 99.2002 -105.813c0 -58.8799 -47.7871 -106.667 -106.667 -106.667h-277.333c-70.6133 0 -128 57.3867 -128 128c0 65.9199 49.9199 120.32 114.134 127.147c26.666 51.1992 80.2129 86.1865 141.866 86.1865
c77.6533 0 142.293 -55.2539 156.8 -128.854zM362.667 170.667h-64v85.333h-85.334v-85.333h-64l106.667 -106.667z" />
    <glyph glyph-name="ic_send_24px" unicode="&#xf107;" horiz-adv-x="511" 
d="M32.2129 0l-0.212891 149.333l320 42.667l-320 42.667l0.212891 149.333l447.787 -192z" />
    <glyph glyph-name="ic_fiber_manual_record_24px" unicode="&#xf10f;" 
d="M85.333 192c0 113.778 56.889 170.667 170.667 170.667s170.667 -56.889 170.667 -170.667c0 -113.778 -56.889 -170.667 -170.667 -170.667c-113.778 0 -170.667 56.889 -170.667 170.667z" />
    <glyph glyph-name="ic_full_screen_exit_24px" unicode="&#xf125;" 
d="M106.667 106.667v42.666h106.666v-106.666h-42.666v64h-64zM170.667 277.333v64h42.666v-106.666h-106.666v42.666h64zM298.667 42.667v106.666h106.666v-42.666h-64v-64h-42.666zM341.333 277.333h64v-42.666h-106.666v106.666h42.666v-64z" />
    <glyph glyph-name="ic_volume_up_24px" unicode="&#xf102;" 
d="M64 256h85.333l106.667 106.667v-341.334l-106.667 106.667h-85.333v128zM352 192c0 -37.7598 -21.7598 -70.1865 -53.333 -85.7598v171.733c31.5732 -15.7871 53.333 -48.2139 53.333 -85.9736zM298.667 379.094c85.5459 -19.4141 149.333 -95.7871 149.333 -187.094
s-63.7871 -167.68 -149.333 -187.094v43.9473c61.6533 18.3467 106.666 75.5195 106.666 143.146s-45.0127 124.8 -106.666 143.146v43.9473z" />
    <glyph glyph-name="lhc" unicode="&#xf11b;" 
d="M384.396 221.944c0 63.6309 -68.5078 115.353 -153.123 115.353c-84.502 0 -153.124 -51.6074 -153.124 -115.353c0 -29.1504 14.4053 -55.8057 38.1113 -76.1084l-35.6152 -71.2305c-1.58789 -3.17578 -0.34082 -4.53711 2.94824 -2.94922l88.0186 43.8955
c18.374 -5.89844 38.5645 -9.07422 59.6611 -9.07422c84.6152 0.113281 153.123 51.7217 153.123 115.467zM298.875 243.495c11.7959 0 21.4365 -9.6416 21.4365 -21.4375s-9.64062 -21.4375 -21.4365 -21.4375c-11.7969 0 -21.4375 9.6416 -21.4375 21.4375
s9.52734 21.4375 21.4375 21.4375zM163.899 200.62c-11.7969 0 -21.4375 9.6416 -21.4375 21.4375s9.64062 21.4375 21.4375 21.4375c11.9092 0 21.4365 -9.6416 21.4365 -21.4375c0 -11.9092 -9.64062 -21.4375 -21.4365 -21.4375zM209.949 222.058
c0 11.7959 9.6416 21.4375 21.4375 21.4375s21.4375 -9.6416 21.4375 -21.4375s-9.6416 -21.4375 -21.4375 -21.4375s-21.4375 9.52832 -21.4375 21.4375zM363.641 309.622c1.24707 0.113281 2.38184 0.679688 3.0625 1.81445l40.3789 47.4111
c1.58789 2.04199 1.24805 4.99121 -0.793945 6.5791s-4.99121 1.24805 -6.5791 -0.793945l-40.3789 -47.4121c-1.58789 -2.04102 -1.24805 -4.99023 0.793945 -6.57812c1.02051 -0.793945 2.26855 -1.13477 3.5166 -1.02051zM425.57 288.185
c2.49512 0.680664 4.08301 3.17578 3.40234 5.6709c-0.566406 2.49512 -3.17578 4.08301 -5.6709 3.40234l-42.9883 -10.5479c-2.49512 -0.567383 -4.08301 -3.17578 -3.40234 -5.6709c0.567383 -2.49609 3.17578 -4.08398 5.6709 -3.40332zM330.634 321.871
c2.6084 -0.339844 4.99023 1.58789 5.21777 4.08398l4.87695 43.668c0.339844 2.49609 -1.47461 4.87793 -4.08301 5.21777c-2.49609 0.34082 -4.87793 -1.47461 -5.21777 -4.08301l-4.87793 -43.6689c-0.339844 -2.49512 1.47461 -4.87695 4.08398 -5.21777z
M404.246 118.047c0 12.4766 -3.85645 24.2734 -10.5479 34.8213c-22.7988 -42.0801 -77.6963 -71.7979 -141.781 -71.7979c-18.4883 0 -36.2959 2.49512 -52.6299 7.03223c15.7666 -29.377 53.9902 -50.1338 98.6797 -50.1338c14.7461 0 28.6973 2.26855 41.5137 6.35254
l59.4346 -29.6045c3.17578 -1.58789 4.53711 -0.339844 2.94922 2.94922l-23.8193 47.752c16.2197 13.8379 26.2012 32.3262 26.2012 52.6289z" />
    <glyph glyph-name="ic_language_24px" unicode="&#xf11e;" 
d="M255.787 405.333c117.973 0 213.546 -95.5732 213.546 -213.333s-95.5732 -213.333 -213.546 -213.333c-117.761 0 -213.12 95.5732 -213.12 213.333s95.3594 213.333 213.12 213.333zM403.627 277.333c-20.4805 35.2002 -53.1201 62.5068 -92.374 75.9473
c12.8008 -23.6807 22.6143 -49.2803 29.4404 -75.9473h62.9336zM256 361.813c-17.707 -25.6006 -31.5732 -53.9736 -40.7471 -84.4805h81.4941c-9.17383 30.5068 -23.04 58.8799 -40.7471 84.4805zM90.8799 149.333h72.1064
c-1.70605 14.0801 -2.98633 28.1602 -2.98633 42.667s1.28027 28.5869 2.98633 42.667h-72.1064c-3.41309 -13.6533 -5.54688 -27.9473 -5.54688 -42.667s2.13379 -29.0137 5.54688 -42.667zM108.373 106.667c20.4805 -35.4141 53.1201 -62.5068 92.374 -75.9473
c-12.8008 23.6807 -22.6133 49.2803 -29.4404 75.9473h-62.9336zM171.307 277.333c6.82715 26.667 16.6396 52.2666 29.4404 75.9473c-39.2539 -13.4404 -71.8936 -40.5332 -92.374 -75.9473h62.9336zM256 22.1865c17.707 25.6006 31.5732 53.9736 40.7471 84.4805h-81.4941
c9.17383 -30.5068 23.04 -58.8799 40.7471 -84.4805zM305.92 149.333c1.91992 14.0801 3.41309 28.1602 3.41309 42.667s-1.49316 28.7998 -3.41309 42.667h-99.8398c-1.91992 -13.8672 -3.41309 -28.1602 -3.41309 -42.667s1.49316 -28.5869 3.41309 -42.667h99.8398z
M311.253 30.7197c39.2539 13.4404 71.8936 40.7471 92.374 75.9473h-62.9336c-6.82617 -26.667 -16.6396 -52.2666 -29.4404 -75.9473zM349.014 149.333h72.1064c3.41309 13.6533 5.54688 27.9473 5.54688 42.667s-2.13379 29.0137 -5.54688 42.667h-72.1064
c1.70605 -14.0801 2.98633 -28.1602 2.98633 -42.667s-1.28027 -28.5869 -2.98633 -42.667z" />
    <glyph glyph-name="ic_print_24px" unicode="&#xf10c;" 
d="M405.333 277.333c35.4141 0 64 -28.5859 64 -64v-128h-85.333v-85.333h-256v85.333h-85.333v128c0 35.4141 28.5859 64 64 64h298.666zM341.333 42.667v106.666h-170.666v-106.666h170.666zM405.333 192c11.7334 0 21.334 9.59961 21.334 21.333
s-9.60059 21.334 -21.334 21.334s-21.333 -9.60059 -21.333 -21.334s9.59961 -21.333 21.333 -21.333zM384 384v-85.333h-256v85.333h256z" />
    <glyph glyph-name="ic_thumb_up_24px" unicode="&#xf109;" 
d="M21.333 0v256h85.334v-256h-85.334zM490.667 234.667l-0.213867 -1.70703l0.213867 -0.212891v-40.7471c0 -5.54688 -1.06738 -10.667 -2.9873 -15.5732l-64.4268 -150.4c-6.39941 -15.3594 -21.5459 -26.0264 -39.2529 -26.0264h-192
c-23.4668 0 -42.667 19.2002 -42.667 42.667v213.333c0 11.7334 4.69336 22.4004 12.5869 30.0801l140.373 140.587l22.6133 -22.4004c5.76074 -5.75977 9.38672 -13.8662 9.38672 -22.6133l-0.639648 -6.82715l-20.2666 -97.4932h134.613
c23.4668 0 42.667 -19.1992 42.667 -42.666z" />
    <glyph glyph-name="ic_unfold_24px" unicode="&#xf126;" 
d="M256 323.627l-67.627 -67.627l-30.293 30.0801l97.9199 97.9199l97.707 -97.9199l-30.0801 -30.0801zM256 60.373l67.627 67.627l30.293 -30.0801l-97.9199 -97.9199l-97.707 97.9199l30.0801 30.0801z" />
    <glyph glyph-name="ic_attach_file_24px" unicode="&#xf10e;" 
d="M352 320h32v-245.333c0 -64.8535 -52.4805 -117.334 -117.333 -117.334c-64.8535 0 -117.334 52.4805 -117.334 117.334v266.666c0 47.1475 38.1865 85.334 85.334 85.334c47.1465 0 85.333 -38.1865 85.333 -85.334v-224c0 -29.4395 -23.8936 -53.333 -53.333 -53.333
c-29.4404 0 -53.334 23.8936 -53.334 53.333v202.667h32v-202.667c0 -11.7334 9.60059 -21.333 21.334 -21.333s21.333 9.59961 21.333 21.333v224c0 29.4404 -23.8936 53.334 -53.333 53.334c-29.4404 0 -53.334 -23.8936 -53.334 -53.334v-266.666
c0 -47.1475 38.1865 -85.334 85.334 -85.334c47.1465 0 85.333 38.1865 85.333 85.334v245.333z" />
    <glyph glyph-name="ic_edit_24px" unicode="&#xf116;" 
d="M64 80l235.946 235.946l80 -80l-235.946 -235.946h-80v80zM441.813 297.813l-39.04 -39.04l-80 80l39.04 39.04c8.31934 8.32031 21.7598 8.32031 30.0801 0l49.9199 -49.9199c8.31934 -8.32031 8.31934 -21.7598 0 -30.0801z" />
    <glyph glyph-name="ic_account_box_24px" unicode="&#xf10d;" 
d="M64 341.333c0 23.4668 18.9863 42.667 42.667 42.667h298.666c23.4668 0 42.667 -19.2002 42.667 -42.667v-298.666c0 -23.4668 -19.2002 -42.667 -42.667 -42.667h-298.666c-23.6807 0 -42.667 19.2002 -42.667 42.667v298.666zM320 256c0 35.4131 -28.5869 64 -64 64
s-64 -28.5869 -64 -64s28.5869 -64 64 -64s64 28.5869 64 64zM128 85.333v-21.333h256v21.333c0 42.667 -85.333 66.1338 -128 66.1338s-128 -23.4668 -128 -66.1338z" />
    <glyph glyph-name="ic_notifications_24px" unicode="&#xf118;" 
d="M256 -21.333c-23.6797 0 -42.667 19.1992 -42.667 42.666h85.334c0 -23.4668 -19.2002 -42.666 -42.667 -42.666zM384 106.667l42.667 -42.667v-21.333h-341.334v21.333l42.667 42.667v106.666c0 65.707 34.7734 120.32 96 134.827v14.5068c0 17.7061 14.293 32 32 32
s32 -14.2939 32 -32v-14.5068c61.0137 -14.5068 96 -69.334 96 -134.827v-106.666z" />
  </font>
</defs>
</svg>
